Die Neusten Top Releases

 

Ren Woods Out Of The Woods Bonus Track Version 1979.2014 HDtracks

Release: Ren.Woods.Out.Of.The.Woods.Bonus.Track.Version.1979.2014.HDtracks

  • Sprache: Englisch
  • Format: rar
  • Hits: 38
  • Größe: 1122 MB
  • Password: Kein Passwort
  • XRel: Hier klicken

Beschreibung

Ren Woods - Out Of The Woods (Bonus Track Version) (1979-2014) [HDtracks]Out Of The Woods (Bonus Track Version) | 2014-12-24 (1979) | Columbia/Legacy
RandB, Soul/Funk, Disco | FLAC (tracks) [24bit/96kHz] | 50:37 | 1,18 Gb (Front Cover)

Tracklist:
01. Hooked On A Love Groove (03:28)
(Al McKay, Glenn Barbee)
02. I Love The Way You Do It (04:37)
(Al McKay, Harold Payne)
03. I Need Someone To Touch Me (04:04)
(Allee Willis, Jon Lind)
04. Sticks And Stones (03:17)
(Al McKay, Allee Willis, Jon Lind)
05. Everybody Get Up (04:26)
(Al McKay, Harold Payne)
06. Sweeter As The Day Goes By (04:41)
(Al McKay, Joey Gallo)
07. I'm In Love With You (03:15)
(Larry John McNally)
08. Straight To Love (04:57)
(Dan Greer, Jeff Wilson)
Bonus Tracks09. Everybody Get Up (12" Mix) (05:51)
(Al McKay, Harold Payne)
10. Everybody Get Up (Instrumental) (06:42)
(Al McKay, Harold Payne)
11. Straight To Love (7" Mix) (04:30)
(Dan Greer, Jeff Wilson)
-
Analyzed: Ren Woods / Out of the Woods (Bonus Track Version)
-
DR Peak RMS Duration Track
-
DR13 -0.10 dB -14.28 dB 3:29 01-Hooked On A Love Groove
DR14 -0.10 dB -15.18 dB 4:37 02-I Love The Way You Do It
DR13 -0.10 dB -15.08 dB 4:04 03-I Need Someone To Touch Me
DR14 -0.10 dB -15.05 dB 3:17 04-Sticks And Stones
DR12 -0.10 dB -13.38 dB 4:38 05-Everybody Get Up
DR12 -0.10 dB -14.63 dB 4:46 06-Sweeter As The Day Goes By
DR13 -0.10 dB -16.02 dB 3:20 07-I'm In Love With You
DR13 -0.10 dB -14.89 dB 5:04 08-Straight To Love
DR12 -0.10 dB -12.73 dB 5:58 09-Everybody Get Up (12" Mix) (Bonus Track)
DR12 -0.10 dB -13.11 dB 6:55 10-Everybody Get Up (Instrumental) (Bonus Track)
DR13 -0.10 dB -15.41 dB 4:29 11-Straight To Love (7" Mix) (Bonus Track)
-
Number of tracks: 11
Official DR value: DR13
Samplerate: 96000 Hz
Channels: 2
Bits per sample: 24
Bitrate: 3132 kbps
Codec: FLAC

Ren Woods Out Of The Woods Bonus Track Version 1979.2014 HDtracks

Kommentare:

Noch keine Kommentare. Registriere dich oder melde dich an um einen Kommentar zu verfassen.



Vote

  • Querverweis Vote
  • RaidRush Vote
  • NYDUS Vote
  • crawli download suchmaschine

Shoutbox

  • NNaros: 24.04 14:03 Yawoll, tote Hose wiedermals. Na Geil.
  • Ugine21: 23.04 14:18 ist hier tote hose?
  • DerErmittler: 20.04 16:31 Wie werde ich nicht weitergeleitet zu usenext ?
  • Mutom: 14.04 19:59 Guten Abend Mädels
  • satisati: 04.04 23:21 24 Weeks
  • satisati: 02.04 20:56 Affenkönig
  • kerni: 20.03 21:07 bitte mehr dicsographien
  • kerni: 20.03 21:05 mal was am rande war 1load damals mal share.. :O?
  • MilaSuperstar: 05.03 08:15 4K Movies are coming..the future is here.. we make 1load sx great again
  • idefix25: 27.02 13:26 LPN SAN

Letzte Kommentare

Werbung

partner